To start, you'll need the console itself, a 4GB+ pen drive titled "SONY" that's formatted either as FAT32 or EXT4, a Windows / OS X / or Linux computer, BIN / CUE files for the PlayStation 1 games you want to play, and then PNG images (226×226 resolution to avoid stretching) of the box art. Here you can see the information that will be shown on the main title screen of the PlayStation Classic. ini file, Cover art image, pcsx. In other words, all the files got it's names, the Cue file should got the same names as the bins files too, don't forget it. Any question feel please just ask. Download and use Adding games to Playstation Classic Mini with BleemSync 0. lr-flycast has support for the Sega Naomi and Atomiswave arcade systems but you will also need the corresponding BIOS from the MAME romset. simply mount your original cue with demon tools and use img burn to create new bin/cue and it will merge all the bins into one set step 1) open daemon tools and set up the virtual drive (if needed) and drag your original cue to that virtual drive, that will mount it. The file can be downloaded at any time and as often as you need it. Vigilante 8 - 2nd Offense. i tried cd mage and it wouldnt let me import it. bin format ROM per disc, any multi-disc game that has multiple. Emulating games is fun, but while SNES, NES and Genesis games are easy to find and run, PlayStation games are a bit more complicated. Verify - Check a disc is 100% readable. Pepsiman (Japan) Final Fantasy VIII (Disc 1) Resident Evil 2 (Disc 1) FIFA Soccer 2005. If file is multipart don't forget to check all parts before downloading! 2. cfg file and the bin and cue files of the game. Welke modellen zijn geschikt. But unfortunately the PC version doesn't support the Vibrations. Discaimer: By purchasing this you are paying for the time and labor to build and compile the HDD. CueMaster is the best freeware cue sheet creator. com's game information and ROM (ISO) download page for Activision Classics (Sony Playstation). These are ideal for burning to a CD-R with burning software that supports CD image burning. Click in the "Image Filename" box, and type in the location and filename of the bin/cue files you wish to create. I have the ROM of Disney's "The Emperor's New Groove" game for it. – Download Alcohol 120% Version 1. We have a curated list of all the retro PS1 games for you to play online or download to play within an emulator on your computer. the downside is some programs that create BIN images cause issues with some Redbook games (Tombraider 1 and 2 are known to freeze in some emulators when ripped with imageburn). bin Revolt/ Revolt. PlayStation Classic 64gb AutoBleem All PBP Game files"> The maximum filesize for a single file is 500 MB. org Playstation Emulator Other 11 days seedpeer. The BIN file is red for most of my games but "Auto Rename Bin File" doesn't fix it and I don't have an "Edit Bin/Cue" option. cgf file and the game’s bin and cue files. You should see the BleemsyncUI interface. Make sure the RAW option is checked, then click START. And it will works perfectly. These BIOS's can be used in any device, PC's, phones, tablets, RP (Raspberry Pi), so look no further you have found the best BIOS collection on the internet!. Product page. ecm" this means that this is a compressed file and no emulators will play it. ini" file inside, preview image of the game in 226x266px resolution, "pcsx. Does anyone know what I can use to convert a CCD&IMG&SUB (multi-session) and NRG image (DTS Audio CD) to either a BIN&CUE/TOC or ISO on Windows and Linux? I also wish to convert a TOC file to CUE, if possible. Daarbij wordt een. Copy the BIN and CUE files from their original location to the GameData folder in the numbered folder you want the game to be in. Then click the first browse button. ) Others work. Bin/cue format perfect for Playstion Classic. com's PSX BIOS download page (scph1001. For more guides, please take closer look here:. The game is a reboot of the Doom series and is the first major installment in the series since the release of Doom 3 in 2004. When used this way, Daemon Tools Lite and ImgBurn enable conversion from IMG, NRG, ISO, BIN/CUE, MDF, CCD, MDS, B5T, B6T, BWT, ISZ, PDI, and CD/DVD images to BIN, IMG and ISO file images! Download: Daemon Tools Lite homepage ImgBurn homepage. PlayStation Classic 1TB Hard Drive Upgrade - PLUG & PLAY - Complete PS1 + 10,000+ Retro Games (Snes, Gba, N64, Psp, Dreamcast, Sega, Arcade) هارد درايف + 1577 لعبة سوني 1 + ألعاب المحاكيات. The most obvious option for this conversion would be to use CloneCD itself. All files are uploaded by users like you, we can’t guarantee that Adding games to Playstation Classic Mini with BleemSync 0. its a container/archive for RAW data. I have the ROM of Disney's "The Emperor's New Groove" game for it. The bin/cue question seems to be a common one among people looking to play backed up. No ridiculous queues! get PlayStation Classic 64gb AutoBleem All PBP Game files"> Post navigation. (The NTSC version of Toshinden being one such title. See the full list of available Sony PSX/PlayStation 1 emulators for this game. Chd Format Chd Format. PlayStation ROMS. Guide by Matthew Reynolds, Guides Editor. The rest will automatically follow. I recently bought Tomb Raider and Tomb Raider II again because my disks were scratched so I needed new ones. by Xanfan on December 6, 2018 at 4:56 PM. (USA) (Disc 2) (Claire) (Track 1). Open your burning program. Download Top Shop [SLUS-01333 Bin Cue] for Playstation(PSX) and play Top Shop [SLUS-01333 Bin Cue] ROM Game on Your Computer or Phone!. cfg” file, game files “Bin” and “cue” files. For example : Jersey Devil (track 1. FILE "whatever. After that, you should decide whether you want to store the games internal or external for playing, and the method is the same. bin" BINARY TRACK 01 MODE2/2352 INDEX 01 00:00:00. Pepsiman (Japan) Final Fantasy VIII (Disc 1) Resident Evil 2 (Disc 1) FIFA Soccer 2005. MGS1 on PSN is 780MB supposedly. When opening an image, the emulator will tell you what format it can read. 8 star rating on Amazon. You'll be able. - download Hellfire ISO from here (which has a. Where it SAYS "CD2. exe) and you will see the interface, it looks like this: So what you do is click on the […] icons and search for what the program is asking: 1- The ISO/BIN/IMG of the game you want to convert. bin disk images. As @umart666 points out, use webman. This hate on the controllers is straight up bullshit lol. Legend of Dragoon, The (USA) (Disc 1). CUE into notepad and make sure the first line contains only a filename, and no path information. Purchase this PS one® Classic and play it on both your PS3™ and PSP® (PlayStation®Portable) systems! Take up arms using powerful "gears" and help Fei Fong Wong regain his lost memories in this RPG classic. com's PSX BIOS download page (scph1001. rxx(00-99) files are multi part files that were created using WinRAR. ePSXe for Android is a Playstation emulator (PSX and PSOne). cue files for the game you're wanting to add, then click "Open". You do not need to worry about the picture or other details. com Open the game file in the GameData folder where you just copied the BIN and Cue file. Browse ROMs / ISOs by download count and ratings. 3 Homebrew tool allows you to encrypt and decrypt any PS2 classics for PS3 to play on PS3. BIN" BINARY would be changed to FILE "D:\MOVIES\CD2. WinISO will create the BIN/CUE file automatically. • Make standard or boot ISOs. BIN file but no. Playstation Portable (PSP)‎ > ‎ Psx - Psp EBOOT Download. • Create DVD-Video. Open the program (PSX2PSP. The URL won't load unless the PS Classic is plugged in and switched on. CUE (crearlo manual),. The file disk. cue file of the game (unless it’s a multi-track game, in which case, you combine the. Official USB versions of classic controllers will always be a good thing. org BIOS section. 0 HDD Full US library Playstation Collection. bin Revolt/ Revolt. OpenEmu on the mac is brilliant — you can quite comfortably play Playstation 1 games once you have it set up. bin files (BIOS ROM images) like you would a game ROM. If your disc image is split across two. bin CRC = 8139792A. Have you seen this before guys? Such file does not exist or it has been. There are some worthwhile inclusions on the slimline system. [SG's] PC Games/Indie/VR - Fronts, 3D Box and Discs. It is very common for PSX games to be in 2 parts, a. cue files of your game to upload. - download Hellfire ISO from here (which has a. CUE a partir de una imagen. If you are tempted by the retro appeal of the PlayStation Classic and want to be sure of getting the best price deals then pay regular visits to our hotukdeals PlayStation Classic pages. Just make sure both BIN and CUE files are in the same folder!. More specific details on the nitty-gritty of how to format files and where to find them is outlined in the GitHub page, so make sure to read through that carefully. Product page. Which may explain why my CUE file didn't play in VLC. rxx(00-99) files are multi part files that were created using WinRAR. OpenEmu on the mac is brilliant — you can quite comfortably play Playstation 1 games once you have it set up. Browse to the folder with the bin and cue files in it and open the. ecm e tanti file in formato. Hope that helps. To decompress this file, download a. Download Video Games Roms ISOs fo free! massive rom Emulators and Extra waiting you on Wowroms!. Take note though that if you use a CRT (Cathode Ray Tube) TV which the PlayStation was designed for, there will be almost zero latency. This is the definitive guide to rebuild copies multitrack format redump. Supports DVD padding. It must be renamed to dc_boot. The first of the two methods available for adding new games to PlayStation Classic is to replace 3 simple files. CueMaster is the best freeware cue sheet creator. bin used by many developers. Mobile optimized. The bin file is a binary file, which stores the raw sector-by-sector copies of the tracks in the disc. You can find a template of the Games folder in the ZIP file. On the next screen, select the drive where you have your game and pick an output destination. These are ideal for burning to a CD-R with burning software that supports CD image burning. I have the ePSXe v1. Step 2: Transfer the Game Files to Your Nexus 7. I tested out PlayStation support, and ran into a few obstacles before getting things to work. Fisher The Redump set for PlayStation 1 USA is 385GB (just the games, no demo/samplers etc) in 7zip format; 7zip is not supported by the Beetle PSX core so when I originally added the PSX library to my Launchbox/RetroArch setup I just extracted every game. Guide isobuster rebuilt bin Multitrack PSX. But unfortunately the PC version doesn't support the Vibrations. I connected my PSC to my computer and it turns on, but I don't even hear the "device connected" sound, and nothing new shows up in Device Manager. Its inheritors and improved models: Net Yaroze, PSone, PSX, PocketStation, PlayStation 2, PlayStation Portable and PlayStation 3. cue file) - mount and install Hellfire ISO using the. Now it supports the games saved in multiple bins files + cue file directly. bin file from the list of installed PS1 games to run the file on the PS3. How to Play this Game ? Quick Navigation: Game Descriptions. (USA) (Disc 1) (Leon) (Track 1). From there, open ImgBurn on your computer and select the "Create image file from disc" option. The Windows Media Player Classic also supports the BIN/CUE file format and will automatically show any BIN or CUE files on your local hard drive in its window. Overriding the heuristics manually is possible through custom manifest files, but that is far from user-friendly or intuitive. A fter revealing the existence of the PlayStation Classic in September, Sony has finally made known the full lineup of games to be included on its upcoming miniature console, available December 3. Now if you have a BIN file without a CUE sheet, you will need help from somebody else. Any BIOS files required:. cue where the. Leave everything default and start encrypt process. Add Tip Ask Question. cue Silent Hill. Most game download sites will bundle a CUE file with the ISO or BIN as this is a standard dependency for most emulators. I just have mine in a folder called PS1. bin file is unpacked and saved to the proper directory on the. The BIOS files needed are: dc_boot. Dreamcast Chd Dreamcast Chd. A lack of. , which would be fine if it were a PS1 game, but I need it to be an ISO for the PS2. by Xanfan on December 6, 2018 at 4:56 PM. No ridiculous queues! get PlayStation Classic 64gb AutoBleem All PBP Game files"> Post navigation. MagicISO shows ISO to BIN converter windows. In most programs you would have to look for a BIN export function and not CUE. To start, you'll need the console itself, a 4GB+ pen drive titled "SONY" that's formatted either as FAT32 or EXT4, a Windows / OS X / or Linux computer, BIN / CUE files for the PlayStation 1 games you want to play, and then PNG images (226×226 resolution to avoid stretching) of the box art. File count (uncompressed): 413 File size (uncompressed): 85. Add ROM files to appropriate folders (example: all PlayStation ROMs in PS1 folder). Diciamocelo: siamo nostalgici, abbiamo console superpotenti ma la play 1 è sempre nei nostri cuori. To check if the BIOS files are installed, launch a game and press Start + Select to open the RetroArch menu. If it's in a CUE/BIN format, load the. Download and play Playstation ROMs for free in the highest quality available. I figured out how to do it without having to convert. Resident Evil 2 - Dual Shock Ver. Als je games van internet download zijn dat meestal ook BIN en CUE files of een PBP bestand. Click in the "Image Filename" box, and type in the location and filename of the bin/cue files you wish to create. You can use musiCutter or Cue Splitter to divide the mp3 file into multiple parts using the. Starting with the grandfathers like the 2600 going up to fifth gen like the N64 and then some. However I've been reading since it creates a more accurate copy (not quite 1:1, but close) of the original. bin files it will make the user think a little bit more about how the emulator loads files rather than blindly throwing files at it until it works. ) Others work. CUE Files with cue file extension can be mainly found as cue sheet description files originally used by the CDRwin program, but more commonly known as small files that accompany. The PBP file is a file used to update the firmware in a Sony PSP (PlayStation Portable). CueMaster can retrieve CD track info from the free online album database FreeDB, or recover cuepoints from the MP3 file itself. If you are unable to play BIN/CUE video files using a VLC player, you can also play it using the Windows Media Player Classic program. chd is the easiest and most efficient method of setting up multi-disc games to be playable with RetroPie. You do not need to worry about the picture or other details. Download Top Shop [SLUS-01333 Bin Cue] ROM for Playstation(PSX/PS1 ISOs) and Play Top Shop [SLUS-01333 Bin Cue] Video Game on your PC, Mac, Android or iOS device!. Finally, load up the ePSXe emulator and, using the “Run ISO” option, load the. RetroArch Android is a very special emulator that, instead of focusing on a single console, such as Playstation or SuperNintendo, attempts to include all kinds of. Supports ISO and CUE/BIN image files. Extract the contents of wiiSX-beta2. bin file, but a lot of games ripped using the Redump method have multiple. CUE file looks like this: FILE "image-name. LaunchBox for MS-DOS Special Edition By Jason Carr. Atari - Jaguar Emulators. After rebooting you will find that your PlayStation games will work with out any errors!. super nintendo. cfg file and the bin and cue files of the game. bin" BINARY TRACK 01 MODE1/2352 INDEX 01 00:00:00 This video is for EDUCATION PURPOSES ONLY. You can choose any character from any represented universe and kill their arch-enemies named General Bison and Magneto. Since they are in the MESS set converted to CHDs I was hoping I might be able to convert them back to bin+cue. Hackers have already managed to crack the PlayStation Classic, with programs now available to allow users to play additional original PlayStation games on the system via a USB drive. Finally, load up the ePSXe emulator and, using the "Run ISO" option, load the. mds (like the. With the Playstation Classic thats actually preferred - not to convert to single bin/cue. cue file, so by hiding a. For more guides, please take closer look here:. Open the Games folder on your USB drive and create a new folder with the name of the game you are adding. This collection only contains games that had more than one disc - Other PlayStation games that are single discs or that need. Étape 8: Allez sur bleemsyncui. PSX2PSP is a Windows application that will allow you to convert your PSX backup disc images to the PSP EBOOT. bin files to EBOOT. Now safely disconnect the USB flash drive from your computer. CUE file is a plain text file which contains information about tracks in a compact disc. Hola a todos los que visitan mi blog, yo soy rhyon1024 de Chile y en esta ocasión les traigo juegos de Playstation 1 en región NTSC para que se los puedan descargar y jugar en su consola. BIN inserted in your DC selfboot discs. Any question feel please just ask. bin file, but a lot of games ripped using the Redump method have multiple. Click in the "Image Filename" box, and type in the location and filename of the bin/cue files you wish to create. PlayStation Classic full games list, size difference, specs and everything else we know Every game coming to PlayStation Classic this December. Most, if not all, PSX games discs only have a single data track, which makes. bin Revolt/ Revolt. To transfer memory card files from PCSX-R/ePSXe to RetroArch: Start game in RetroArch. On the game manager screen, click the Choose files button under the Add New Game option to open your file manager. How to Make PS1 Games Change to Eboots for PSP Usage: Hi i will show you how to make PS1 games work on a PSP. Click in the "Image Filename" box, and type in the location and filename of the bin/cue files you wish to create. Playstation 1 · RetroPie/RetroPie-Setup Wiki · GitHub. I'd love to use EBOOTs too, but there doesn't seem to be any program to convert bin/cue PSX games with more than one. I tried this last night and found one free program that would do it called anyburn however while this produced the img>bin/cue the files were not usable and would crash the classic. Step 2: Transfer the Game Files to Your Nexus 7. The bin/cue question seems to be a common one among people looking to play backed up. org BIOS section. org ) images was tricky but possible. bin file in the newly created folder PSXoid Now comes the tricky part with the roms since most of them have a wierd ECM file type that wont be recognized by your emulator; dont worry you just need to convert the file type to bin so the emulator can recognize it. Let's start with PSX games. Disc Images: • Burn disc images. Compressed PlayStation 1 games have the "ECM" extension. bin Silent Hill/ Silent Hill. But the PC version is the best on graphics, with rich Color depth on the Pre-rendered Backgrounds. Add Tip Ask Question. Like ISO files, ECM hold other information in an archive format, usually to store image files like BIN, CDI, NRG, etc. Plug the other end of the micro USB cord into your PC. com offers free software downloads for Windows, Mac, iOS and Android computers and mobile devices. I have one. To convert the image file, go to ImgBurn, and select “Create image file from disc“. It's also a lot quicker than launching multiman, mount the game and go back to xmb to play the game. Disc based games arent "roms", a bin/iso is a copy of the disc that can be burned, unlike an iso a bin needs to have a. PBP file format. Welke games wel of niet werken kun je op Wiki bekijken. Download and play Playstation ROMs for free in the highest quality available. Just make sure both BIN and CUE files are in the same folder!. Over here, you can download from our vast collection of PSX ISO's. bin files on a single disc will not work with. cfg" file, game files "Bin" and "cue" files. CUE can be made with just Notepad. r/PlaystationClassic: Subreddit for the PlayStation Classic. -> Playstation 1 One Mini Classic - Bleem Sync HACK Tutorial - Latest Update. I configured the emulator but it didn't ask me where the game is placed and it didn't run the game. Hi everyone I've just gone through a whole bunch of my old PS1 games and ripped them to bin/cue format. Welcome to replayers. AnyBurn will list all files and folders within the BIN / CUE file. We're sure that you know not many sites offer PSX ISO's for download. BurnAware Professional / Premium 13. PlayStation ROMS. PlayStation Classics can't either, which is why we're talking about this incredible game today. - Direct booting of homebrew executables - Digital and analog controllers for input (rumble is forwarded to host) - Qt and SDL frontends for desktop - Qt frontend has graphical configuration, and controller binding. Bloomberg delivers business and markets news, data, analysis, and video to the world, featuring stories from Businessweek and Bloomberg News on everything pertaining to politics. Does anyone know what I can use to convert a CCD&IMG&SUB (multi-session) and NRG image (DTS Audio CD) to either a BIN&CUE/TOC or ISO on Windows and Linux? I also wish to convert a TOC file to CUE, if possible. NOTE: All the Roms/ Emulators available here are submitted by the users, we have tried our best to verify the files, and only the files which are secure are made available. Naruto Clash of Ninja Revolution 2 dolphin emulator Naruto Clash of Ninja Revolution 2 Wii iso is a action video game. Download sega cue maker windows 7 x64 for free. Hola a todos los que visitan mi blog, yo soy rhyon1024 de Chile y en esta ocasión les traigo juegos de Playstation 1 en región NTSC para que se los puedan descargar y jugar en su consola. However I've been reading since it creates a more accurate copy (not quite 1:1, but close) of the original. BleemSync is the earliest hacking solution for the PlayStation Classic and as a result, it’s probably the most well-known. I suggest you just convert the ISO / Bin / Image files for PSone games to PBP using Popstation, That has given best results for me so far It saves quite a lot of space but does not impact the performance. I turned off CCD creation so I'd get a BIN/CUE image file set of the same disc to test again. A PSX game will only ever need one. Autogenerate the missing cue file for your PSX emulation bins. VideoGames Videos - VideoGames. cue file of the game (unless it's a multi-track game, in which case, you combine the. Now, CHD support has been enabled on PCSX ReARMed on 3DS. bin to the exact name of your bin file. Sony PlayStation PSX PS1 Roms Section. Great site for hard-to-find Sega CD BIN/CUEs While most of the downloads here are in the BIN/CUE format, it's not always clear how they were ripped. Playstation / PS1 Game Information. Brand new 1TB HDD. Capcom - Clash of Super Heroes. ISOs » Sony Playstation » c » cues and sbis. The BIOS files needed are: dc_boot. 0 drives work for that. 1 For mac are up to date. The game is a reboot of the Doom series and is the first major installment in the series since the release of Doom 3 in 2004. This is the definitive guide to rebuild copies multitrack format redump. After WinRAR has finished extracting your game files, you will find a number of files added to the directory you are viewing. Creating a cue sheet for a CD has never been so easy. The cue file is a plain-text file, which stores the information of disc and tracks. Discaimer: By purchasing this you are paying for the time and labor to build and compile the HDD. BIN inserted in DiscJuggler. One I made earlier. File Life: 30 days after no activity. sony playstation, playstation, psx, ps1, psone, retro, game, games, set, discs A complete, curated, hand-tested English set of multi disc games for the Sony PlayStation console. Add Tip Ask Question. This will probably be the last major update to the Dreamcast version of DreamSpec. Let's start with PSX games. For example : Jersey Devil (track 1. 5897 Ratings Description. PS1 BIOS files are named scph5500. Discounts on PC Game Keys. Now you should mount your image files using Daemon Tools. com's PSX BIOS download page (scph1001. cue file) - mount and install Hellfire ISO using the. From there, open ImgBurn on your computer and select the "Create image file from disc" option. PBP file format. If you're feeling adventurous, try the advanced rom browser. I have some Playstation files that I am trying to get to work with Lakka. These are usually games that use CDDA audio where each audio track is stored as a separate. Creating a cue sheet for a CD has never been so easy. ecm" this means that this is a compressed file and no emulators will play it. I used it to compress my PSX game RIP's so to save a lot of disk space on my hard drive. Title=”Playstation Classic Ultimate Tools – HarrisonHacks” This content is 7 months old. The built-in PSP emulator for PS Vita can play PSX games flawlessly (via Adrenaline), however they must be in the PSP file format to work. Make sure, if you have bin and cue files, to load the cue file, as that makes the emulator understand the track listing. Welcome to ROMs Universe, a brand new website that equips you with all the tools you need to indulge in the video game classics of yesteryear. You can also find cue files for many games here, obviously you will need to make sure the. This is a tutorial on how to decompress PlayStation 1 games. If file is multipart don't forget to check all parts before downloading! 2. 0 or later. bin files (BIOS ROM images) like you would a game ROM. ImgBurn supports a wide range of image file formats - including BIN, CCD, CDI, CUE, DI, DVD, GI, IMG, ISO, MDS, NRG and PDI. It all started with a broken contract with Nintendo at the end of the decade of 1980. Coprocessor firmwares. @Close voters: consider that it is possible to legally do this. Sega - Genesis / Sega CD / 32X emulators on Windows and other platforms, free Sega - Genesis / Sega CD / 32X emulator downloads, as well as savestates, hacks, cheats, utilities, and more. RELEASE FILES - RARset The movies are all supplied in RAR form, whether its v2 (rar>. simply mount your original cue with demon tools and use img burn to create new bin/cue and it will merge all the bins into one set step 1) open daemon tools and set up the virtual drive (if needed) and drag your original cue to that virtual drive, that will mount it. With PowerISO, you can open BIN / CUE. 1) With a. net - The Independent Video Game Community Home Forums Other Systems Discussions Other Consoles Other Consoles & Oldies Convert multiple tracks/bin files into a single bin/cue file for playstation classic mini. Clean simple layout combined with both 2D and 3D graphics. When you see a file with. How to download psx bios scph1001 bin emuparadise files to my device? 1. How to add games to the PlayStation Classic - AIVAnet. Unlike the others, they come in a dozen of different disc formats. BIN file but no. A Convert Image File project opens in the project window. PlayStation 1 was released on December 3, 1994 in Japan, 3rd September, 1995 in the U. Sega Saturn Bios. The Image file will now open and you should be able to see the folders on the disc. to Playstation 1 Emulator + 10 Games [Pick and Choose] Games PS1 5 months torlock. Disc based games arent "roms", a bin/iso is a copy of the disc that can be burned, unlike an iso a bin needs to have a. There are some worthwhile inclusions on the slimline system. When you extract the compress download file, most likely you'll have 2 files. Plug the micro USB cord into the back of the PlayStation Classic. bin file and one. Download Tekken 3 ISO ROM for PSX to play on your pc, mac, android or iOS mobile device. D Wizard “Alcohol Cloaking Initiative for DRM”. Clean simple layout combined with both 2D and 3D graphics. Bin/cue format perfect for Playstion Classic. I used it to compress my PSX game RIP's so to save a lot of disk space on my hard drive. The name of cue file should be the same in the regional db cell BASENAME in order to execute the game correctly, also the name of the bin file should be the same in the cue file, both files are. by Xanfan on December 6, 2018 at 4:56 PM. 1 Mac only on your own responsibility. estaré actualizando el listado y bueno si quieren algún juego que no este en la lista lo puedo buscar y subir. Any question feel please just ask. You do not need to worry about the picture or other details. For one, the game has to be in a very common disc image format. Ive just had a browse around and it seems to be a nice big friendly forum Anywho. txt file, notes. bin to the exact name of your bin file. estaré actualizando el listado y bueno si quieren algún juego que no este en la lista lo puedo buscar y subir. Playstation 1 (PSX) In this section of this site you can download all games of Playstation 1 (PSX) in the most popular formats such as bin cue, iso or img. to Playstation 1 Emulator + 10 Games [Pick and Choose] Games PS1 5 months torlock. Final Fantasy VII (Disc 1) Yu-Gi-Oh! Forbidden Memories. Another emulator that I see people having issues setting up on their Raspberry Pi is PlayStation. Make sure the file type is set to BIN, then simply follow the prompts to start ripping the game to an image file. On the game manager screen, click the Choose files button under the Add New Game option to open your file manager. Videos, Screenshots, and Media. Download section for Sega Saturn ROMs / ISOs of Rom Hustler. Atari - 5200 Emulators. Img To Pbp. With the Playstation Classic thats actually preferred - not to convert to single bin/cue. - Fixed multi-bin format in Windows version (redump format). The cue file is a plain-text file, which stores the information of disc and tracks. Welcome to ROMs Universe, a brand new website that equips you with all the tools you need to indulge in the video game classics of yesteryear. bin files I'm out of luck. Atari - 2600 Emulators. Over here, we have a great selection of console BIOS files to use on emulators like the Dreamcast Bios for Reicast on Android devices and many more. PCSX-Reloaded w32 1. But unfortunately the PC version doesn't support the Vibrations. How to download crash bandicoot psx bin files to my device? 1. Step 2: Transfer the Game Files to Your Nexus 7. BIN file of binary CD/DVD/VCD/SVCD images. 1 Mac only on your own responsibility. bin Silent Hill/ Silent Hill. 100% Fast Downloads!. RetroArch Android is a very special emulator that, instead of focusing on a single console, such as Playstation or SuperNintendo, attempts to include all kinds of. On the desktop, there is "Crash Bash. cue file with it (the cue file is simply a small file with text in it that directs the application to the bin file and tells it other information about the type of disc it is, its easy to make your own cue file if you dont have one). 0 or later. bin, SCPH5501. Recherchez et sélectionnez les fichiers. The first of the two methods available for adding new games to PlayStation Classic is to replace 3 simple files. When used this way, Daemon Tools Lite and ImgBurn enable conversion from IMG, NRG, ISO, BIN/CUE, MDF, CCD, MDS, B5T, B6T, BWT, ISZ, PDI, and CD/DVD images to BIN, IMG and ISO file images! Download: Daemon Tools Lite homepage ImgBurn homepage. For you, there are several thousand PS ONE games available and you can download favorite games from your childhood. The filename in the cue file must match the spelling and case of the bin file exactly. Like ISO files, ECM hold other information in an archive format, usually to store image files like BIN, CDI, NRG, etc. ecm" this means that this is a compressed file and no emulators will play it. Extract the contents of wiiSX-beta2. If your game files ( your bin files ) got a kind of a name ( wherever what is ) inside at the Cue information should got the same name as your fiscally bin files as well. bin files I'm out of luck. You know, multitrack games. Bin y el otro con la extensión. A program to easily generate cue sheets for CD images with compressed or raw (wav) audio tracks, usable, for example, in DosBox. 0 is here! If you run MS-DOS (or the DOS console in Windows More information. Compressed PlayStation 1 games have the "ECM" extension. You'll be able. Native Launcher for MS-DOS LaunchBox for MS-DOS 2. Click Convert Button. After that, it's just a matter of ripping your PS1 discs to your computer using ImgBurn (to get the. BIN, and the other is. The file disk. Many apps, including Windows, won't recognize a CUE / BIN image to mount it. cue files) in the directory named /wiisx/isos (All save types will automatically be placed in /wiisx/saves) For actual BIOS: Name your bios files "SCPH1001. The cue file is a plain-text file, which stores the information of disc and tracks. its a container/archive for RAW data. Run AnyBurn, and click "Browse / Extract image file". bin files, open up the. File Size 723. Play and Download Playstation ROMs for free in high quality. – Download Alcohol 120% Version 1. Sega - Genesis / Sega CD / 32X emulators on Windows and other platforms, free Sega - Genesis / Sega CD / 32X emulator downloads, as well as savestates, hacks, cheats, utilities, and more. On 31 of March 2005 the sales of PlayStation and PSone has reached the level of 102. • Create DVD-Video. Adding More PS1 Games. Step 2: Transfer the Game Files to Your Nexus 7. If this is the first time running RetroBoot on your console, you will need to disconnect the power cable first, then connect the USB. bin, and scph5502. You do not need to worry about the picture or other details. 100% Fast Downloads!. bin" BINARY TRACK 01 MODE2/2352 INDEX 01 00:00:00. First you have to extract the files and save them to your desktop. Each folder must be numbered sequentially and each folder must contain the following files: "GameData" folder with a "Game. The built-in heuristics fail on games that intentionally try to fool emulation attempts. On 31 of March 2005 the sales of PlayStation and PSone has reached the level of 102. Collection of. Choose source ISO file that you want to convert. Click on: File —-> Open Image File; and select the file. This hate on the controllers is straight up bullshit lol. What does it emulate? Dreamcast. Plug the micro USB cord into the back of the PlayStation Classic. cue files totally pointless for PSX game images. ini, a cover art image, a pcsx. ImgBurn supports a wide range of image file formats - including BIN, CCD, CDI, CUE, DI, DVD, GI, IMG, ISO, MDS, NRG and PDI. Those familiar with the PlayStation 1 and Dreamcast may recall bleem!, a PS1 emulator which has inspired the name of a recently released piece of software called BleemSync. Step 2: Transfer the Game Files to Your Nexus 7. A template for how game folders should look is located in the initial ZIP file and. and the game's ". To run a disk image in an unsupported format, you will need to mount it with a separate program and configure ePSXe to use the virtual drive which the image is mounted to (Config-> Cdrom-> Configur. After WinRAR has finished extracting your game files, you will find a number of files added to the directory you are viewing. cue" at the end), then. Including CX4, DSP1/1A, DSP1B, DSP2, DSP3, DSP4, ST010, ST011 and ST018. Pepsiman (Japan) Final Fantasy VIII (Disc 1) Resident Evil 2 (Disc 1) FIFA Soccer 2005. RetroArch Android is a very special emulator that, instead of focusing on a single console, such as Playstation or SuperNintendo, attempts to include all kinds of. BIN" and place them on SD/USB in the directory /wiisx/bios For DVD. Most, if not all, PSX games discs only have a single data track, which makes. Welcome to our PSX ISO Section. Click on: File —-> Open Image File; and select the file. cue files contain only the following, then you are free to delete them; if they contain more than a single track record, or the index is not 00:00:00, then you should keep them. Games/ Resident Evil 2 Leon/ Resident Evil. What Console does this run on? PlayStation Classic. I have the ROM of Disney's "The Emperor's New Groove" game for it. No comments. Inside you'll find important information on each game's serial number and region, languages, game features, screenshots, and more! We will also be providing you with the best high resolution. The file disk. cue" Files for Your PSX Games. If a cue file is required and is not supplied a generic cue file will be generated. I suggest you just convert the ISO / Bin / Image files for PSone games to PBP using Popstation, That has given best results for me so far It saves quite a lot of space but does not impact the performance. The PlayStation Classic was a great idea that was disappointingly executed. Free delivery on millions of items with Prime. If file is multipart don't forget to check all parts before downloading! 2. This greatly reduces framerate dips, especially during FMVs and loading zones. Most, if not all, PSX games discs only have a single data track, which makes. CUE can be made with just Notepad. It must be renamed to dc_boot. It is very common for PSX games to be in 2 parts, a. I suggest you just convert the ISO / Bin / Image files for PSone games to PBP using Popstation, That has given best results for me so far It saves quite a lot of space but does not impact the performance. This means you can share the same images between RetroArch versions, the images will take up less speed on your SD card, and they will load (and run!) significantly faster than. Description. - Fixed multi-bin format in Windows version (redump format). games like Firebugs, and Demo1 Discs are hard to find so they are always just Bin files. A fter revealing the existence of the PlayStation Classic in September, Sony has finally made known the full lineup of games to be included on its upcoming miniature console, available December 3. Now, grab your PlayStation Classic with its micro USB cord and bring it over to your PC. Make sure you edit the text gameiso. Bin/cue format perfect for Playstion Classic. lr-flycast has support for the Sega Naomi and Atomiswave arcade systems but you will also need the corresponding BIOS from the MAME romset. I used it to compress my PSX game RIP's so to save a lot of disk space on my hard drive. Great site for hard-to-find Sega CD BIN/CUEs While most of the downloads here are in the BIN/CUE format, it's not always clear how they were ripped. ) Others work. All of the added PS1 games should be available in BleemSync. If it's in a CUE/BIN format, load the. Official USB versions of classic controllers will always be a good thing. 01 - 40 Winks [373 Mb] 02 - Action Man 2 - Destruction X [194 Mb] 03 - Action Man Op Ex [231 Mb]. -> Playstation 1 One Mini Classic - Bleem Sync HACK Tutorial - Latest Update. It supports a wide variety of disc image formats (except multitrack, multibin + cue files). Vous devriez voir l’interface BleemsyncUI. 1 Mac only on your own responsibility. I have the ePSXe v1. lr-flycast has support for the Sega Naomi and Atomiswave arcade systems but you will also need the corresponding BIOS from the MAME romset. try downloading one and extract the files and check how big they really are. It all started with a broken contract with Nintendo at the end of the decade of 1980. cue, I believe that PS3 can read those two but I prefer to convert it to. ini” file inside, preview image of the game in 226x266px resolution, “pcsx. PS1 ROM files should be in. Required for Super Game Boy emulation. also trying magiciso and it convert it to files of only 36 mb. LIGHTSPAN - LIQUID BOOKS ADVENTURE 2 - AMRITA'S TREES AND CERDITO AND THE COYOTE. Roms with only BIN Files so i have a fair few games with no CUE files present, and i can't find any sources with both Cue and Bin files. Come aggiungere giochi PlayStation Classic e BleemSync. BIN } Looking for SONY PLAYSTATION PSX, PS1 & 2 EMULATOR BIOS(s) might suggest that the "scph101. com offers free software downloads for Windows, Mac, iOS and Android computers and mobile devices. ISO - A single "ISO" file. However, if you use a modern day LCD (Liquid Crystal Display) TV, most if not all have high-latency which will effect your gameplay, especially in games which require precision input, such as Tekken 3, Gran Turismo or Bust a Groove. cue of your copy. Does anyone know what I can use to convert a CCD&IMG&SUB (multi-session) and NRG image (DTS Audio CD) to either a BIN&CUE/TOC or ISO on Windows and Linux? I also wish to convert a TOC file to CUE, if possible. Now, grab your PlayStation Classic with its micro USB cord and bring it over to your PC. if you have bin and cue files, to load the cue file, as that makes the emulator understand the track listing. cue) and one or more bin files. All files can freely be found on the internet and neither ebay or myself condone piracy in any form, and this HDD is intended for backup/archival purposes only. PSX ROMS Emulator for Windows - Works Great. • Create DVD-Video. Cue sheets are hard to find these days. Choose Tools Menu and click ISO to BIN command. Final Fantasy X/X-2 HD Remaster Trainer. I also tried PBP games from the PlayStation Classic 256GB pack over at arcadepunks, some worked others did not. If file is multipart don't forget to check all parts before downloading! 2. Another emulator that I see people having issues setting up on their Raspberry Pi is PlayStation. Finally, load up the ePSXe emulator and, using the "Run ISO" option, load the. IMG or BIN of the PSX game you wish to convert. In most programs you would have to look for a BIN export function and not CUE. Give it a few minutes to run and you should. Falcom Music Room Sound Canvas MIDI Collection V2. There is support for the new Windows 7 Beta operating system from Microsoft. Sony's PlayStation Classic Hacked for ISO File Use; List of Potentially Included Games Discovered. Build - Create an image file from files on your computer or network - or you can write the files directly to a disc. cue) and one or more bin files. Street Fighter characters. The user can use MagicISO as BIN converter. The PlayStation Classic was a great idea that was disappointingly executed. Download sega cue maker windows 7 x64 for free. Thus, if you download any ISO's, please show you support by voting for the site. 3 Homebrew tool allows you to encrypt and decrypt any PS2 classics for PS3 to play on PS3. bin files to EBOOT. The Playstation 1 bios files are SCPH5500. If your game files ( your bin files ) got a kind of a name ( wherever what is ) inside at the Cue information should got the same name as your fiscally bin files as well. The PlayStation Classic is a compact recreation of the original PlayStation console, preloaded with 20 classic games. This is a collection of cue and sbi files found around the web for Playstation One (PSX) roms. If I hadn't tested a file BEFORE renaming it, I'd still be clueless about the whole thing myself!. Connect a USB stick to one of your computer's USB ports and copy the contents of the PS1 game archive onto it. The benefits of AutoBleem are it is very easy to install, it makes no changes to the internal system (everything is ran off the external USB drive), and it uses its own UI which you can change and add themes. Als je games van internet download zijn dat meestal ook BIN en CUE files of een PBP bestand. 9 KiB - 1,238 hits - June 9, 2005 This tool allows you to explore and extract the IP. For example : Jersey Devil (track 1. Lightspan - Math on the Move! 1 - Addition / Subtraction Advanced. These BIOS’s can be used in any device, PC’s, phones, tablets, RP (Raspberry Pi), so look no further you have found the best BIOS … Continue reading "BIOS Files". Finally, load up the ePSXe emulator and, using the "Run ISO" option, load the. You do not need to worry about the picture or other details. This is a tutorial on how to decompress PlayStation 1 games. Not surprisingly, hackers have been hard at work trying to crack the novelty console as they've done already with. The most simple way to access these files is to use your CD or DVD Burner to burn them to a disk. cue file of the game (unless it's a multi-track game, in which case, you combine the. , which would be fine if it were a PS1 game, but I need it to be an ISO for the PS2. Bin Cue Software - Free Download Bin Cue - Top 4 Download - Top4Download. Purchase this PS one® Classic and play it on both your PS3™ and PSP® (PlayStation®Portable) systems! Everyone's favorite dragon is back, and this time he must save the Year of the Dragon Festival by rescuing the 150 eggs that have been stolen by the evil Sorceress and scattered across the Forgotten Worlds. Formats that run fine are the ISO format or the CUE/BIN file. comicbook superhero. ecm" this means that this is a compressed file and no emulators will play it. Sporting fully 3D graphics, increased party member limit in battle (from 3 to 4), rebalanced gameplay and a fully orchestrated soundtrack. Currently PSIO will only work with rips that have one. cue file of the game (unless it’s a multi-track game, in which case, you combine the. Dreamcast Chd Dreamcast Chd. Select the "Install Package Files" option and select the "PS3SX" PKG file when the PKG list comes up on the TV screen.
vqp2gd7facy, affsxq2q7l0v90, 6w9r5i9diq, glg8ty7qhg8ex, v233epcp850ldm, 2w9nahtjc0mx9h, hvpufrh4zllje, g0z4hu57ch7, e1fy86d357, 9ptw6tknxx8, tlyfvvil92dl, d6lxp5c0kv, 2wv0zxcpsuk5cv, 6sz0cyf7r1qiw, igm61c4ahdqfdb, 8kl7oqrsjx8, 6qe65n777ud, msh41hw2pop0, itidl9rrailjn, 8jirz5bor2j6f5, igjzam25fq8jn98, b35y46ooaynmi, 4y7gjuwcyx, nagml3oh93eb, cosd40d3d7, 2p3eua7ac3f, 2yo7k6pgsxjmr, h36ueekk5sp4f, wdjh99s1js, tubupccej9vlss